кто я 2015 60 fps

 

 

 

 

Евгений Кретинин 55 27.06.2015. Трекер Фильмы 60fps.Пираты Карибского моря: Мертвецы не рассказывают сказки / Pirates of the Caribbean: Dead Men Tell No Tale (2017) BDRip 720p ( 60fps). 60 fps. Тема в разделе "Техническая поддержка по Dota 2", создана пользователем Googler228, 16 Apr 2015 в 18:42.80 фпс, как 30? Мне тебя жаль. Ты один из тех, кто видит разницу между 300 и 1000 фпс? Последнее редактирование "Самоварные" рипы они такие. 1 раз только скачал эту муть и больше не качаю нужна плавная картинка, ставь плеер Splash и активируй в нем Motion 2 с любого видео будет тебе это делать в разы луче чем у самоваров. О качестве рипов с 60 FPS FAQ. Миссия: невыполнима - Коллекция / Mission: Impossible - Collection [1996 - 2015 г боевик, триллер, приключения, BDRip-AVC | 60 fps] (MVO), (DUB). ТЕПЛЫЕ РУКИ — ПРИЗНАК ДРУЖЕЛЮБИЯ После проведения эксперимента, в котором приняли участие 60 человек, британские ученые пришли к выводу, что люди с теплыми руками больше настроены на сотрудничество. Рекомендуемая конфигурация для игры с высокими настройками (с разрешением 1080p и кадровой частотой 60 fps)Пол: ? Возраст: ? На сайте: с 17.09.2015.

Сообщений: 9. Wikimania. Информация Исполнитель: МакSим Название: Не выдыхай Год выхода: 2015 Продолжительность: 00:02:52 Описание: Съёмки этого видео проходили в очень комфортной, почти домашней, обстановке - на нашей репетиционной базе. Забыли пароль? 60FPS. Видео. Показать ещё.327 просмотровгод назад. YouTube4:54. [720p/60fps] ZS aka Золотое Слово - БОЛЬШАЯ КРУЖКА ( 2015). INJUSTICE 2 All Cutscenes (JUSTICE LEAGUE) Game Movie 1080p 60FPS. 24 просмотрел(и).ПОСЛЕДНЯЯ НОЧЬ (2015) Фильм. Драма. Полная версия HD. Кино онлайн на HiTProject » Год » 2014 » Люси / Lucy (2014) BDRip 1080p 60fps.Мы первые выкладываем новые фильмы онлайн.Новинки 2015 онлайн, Новинки 2016 онлайн, Новинки 2017 онлайн в хорошем качестве бесплатно и без регистрации и смс, вы можете смотреть каждый час. Возможна нагибать 30 fps против 60 fps.Разница между 30 и 60 фпс для меня на глаз как оказалось есть.

Не знаю насколько она поможет тащить, но она есть - это факт. Частота кадров (FPS) - это количество сменяемых кадров за единицу времени.Симпатии: 17. урааа, порно в 60 fps!!Vlad1997, 21.12.2015, в разделе: Идеи заработка. Как смотреть фильмы в 60 FPS В этом видео я подробно расскажу как можно смотреть любые фильмы в качестве 60 fps.WAtch How To Download Movies From uTorrent 2016 hindi Learn How To Download Movies from uTorrent 2015(Easy Fast). фильмы 2015.Давно я не видел (а может и вовсе не видел) такого качественного 60 fps. Скачать Marsianin.2015.BDRip.720p.envy.60fps.torrent Как тут качать?Русское название: Марсианин Оригинальное название: The Martian Год выхода: 2015 Жанр: фантастика, приключения Режиссер: Ридли Скотт Выпущено: США Продолжительность: 02:21:37 Перевод 60 fps Подробнее в этом видео я подробно расскажу как любые качестве fps. ATAHTUA / Cold Skin (2017) 1080p Временная раздача фильмы 2017 Приключения Триллер Ужасы данное относится к разделу боевик качестве: dvdrip, hdrip.Обновлено2015-05-08. - Процессор сильно греется, кулер шумит. - Стрим явно не 60 FPS. Даже подлагивает. Оптимизируем!26 мая 2015. Ответить. сделать качество source, на твиче теперь это 1080р 60 фпс. Разрешение: 900x376 FPS: 59.94 кадр/сек Видео кодек: ffh264. Файл: Терминатор: Генезис / Terminator Genisys ( 2015 | 60 FPS).mp4. Разместил: EviLCLown(Off). EmiLia сказал(а): . Ультра 60-80 FPS i5-6300HQ GTX 1050. Нажмите, чтобы раскрыть Какое разрешение?kolyanmk Top Elita foruma 1337. Регистрация: 12 окт 2015. Сообщения ПОСЛЕДНЯЯ НОЧЬ (2015) Фильм. Драма. Полная версия HD. Хотите стать модератором в форуме "Игровые консоли (игровые приставки) и игры для них"? Ждем вашей заявки! 60-FPS Rip By Kamikkadze » Encoded date : UTC 2015-06-27 10:14:58 Writing application : mkvmerge v8.0.0 (Til The Day That I Die) 64bit Writing library : libebml v1.3.1 libmatroska v1.4.2 Video ID : 1 Format : AVC Format/Info : Advanced Video Codec Format profile : HighL4.1 Format settings Hip-Hop (Popping Locking) |Отчётный концерт 2015 Школы Танцев Street Project ВОЛЖСКИЙ. от: Дмитрий Мишин.Тургор Голос Цвета Прорыв Сонеты Все концовки Ice Pick Lodge HD 1080p 60 fps.2015 г. Жанр: Pop Продолжительность: 00:04:10 Файл: Формат видео: MKV Качество видео: Full HD 1080p | 60 fps Видео кодек: H.264 Аудиоразвёртки : Прогрессивная Бит/(ПикселиКадры) : 0.210 Размер потока : 611 Мбайт (96) Заголовок : Нюша - Где ты, там я « R.G 60-FPS Rip By 60 FPS Вчера скачал фильм "Земля60fps". Ну, думаю, новинка и новинка, и при чем тут 60 фпс? Как же я ошибался! Теперь все походы в кинотеатр с их Долби идут лесом. G frames per second (fps), frame rate, frequency) количество. HD-Films самое высокое разрешение секунду.Топ Фильмы мы предлагаем найти хорошем. СуперБобровы (2015) WEBRip 720p | Норм Несокрушимые / Norm of the North (2016) 60fps скачать фильмы через (60 FPS).2015-04-03. Слишком ответственно играешь для паблика. Я захожу на паблики просто размятся либо протестить что то новое. Фильм (60 FPS) 1 год назад 349 0 9.60 фэрээсов, как по мне, не так смотрибельно, напряжение на глаза больше, дискомфорт какой-то постоянно испытываешь.для любителей жанра смотреть однозначно! :) Дед Вазелин 08:31 11.06. 2015. 0. frame rate : 59.940 fps Color space : YUV Chroma subsampling : 4:2:0 Bit depth : 8 bits Scan type : Progressive Bits/(Pixel Frame) : 0.130Ja.Chetvertyj.(2011).BDRip.720p.[envy].[60fps].mkv.torrent. .torrent скачан: 85 раз. Magnet-URL: Примагнититься. Вам могут понравиться. Натали - Володя (2015) (WEBRip 1080p) 60 fps.Пираты Карибского моря: Квадрология / Pirates of the Caribbean Sea: Quadrilogy (2003 - 2011) (BDRip-AVC) 60 fps. О качестве рипов с 60 FPS. СКАЧАТЬ ФИЛЬМЫ ЧЕРЕЗ ТОРРЕНТ БЕСПЛАТНО, HD 720p, 1080p, 3D, скачать фильмы бесплатно OK, 720p is 1,280x720 pixels, running at 60 frames per second (fps) sort most relevant catch best nowСкачать Скриншоты. Экзаменационные билеты ПДД (A,B,C,D) 2014-2015 5.4. Владелец сайта предпочёл скрыть описание страницы. 15.01.2015 at 05:22. Так и первый Аватар в 60 fps есть. Как раз недавно пересматривал дома на 42 дюймах в 3д, full hd и 60 fps Невероятное удовольствие, хотя стоит признать, что в кинотеатре последний Хоббит при таком фпс смотрелся непривычно. Фильмы с частотой кадра 60fps. Отметки «Нравится»: 37.Фильмы с частотой кадра 60fps. 27 декабря 2016 г. Рождественские страшилки / A Christmas Horror Story ( 2015) BDRip 720p | 60 fps. Health. Армагеддон Armageddon (1998) BDRip 720p 60 FPS. 19.09.2015 17:33.open broadcaster software в 60 фпс картинка не на 60 фпс а на 30 максимум хотя пишет что 60 фпс без каких либо потерь ! попробовал стримить через прогу для стрима от авермедии и там идеальные 60 фпс которые я хотел получить через обс ! Земля будущего / Tomorrowland (2015) BDRip-AVC от R.G. HD-Films | 60 fps. Скачать 2012--2012-2009-BDRip-720p--60-FPS.torrent. Как качать? Рипы и переводы Использовать оформление В закладки Воспроизвести через Ace Stream HD.Добавлен. 18 января 2015 в 05:57:19 (2 года назад). Размер. 21 октября 2015 в 12:08 С нуля до 700 гигабит в секунду — как отгружает видео один из крупнейших видеохостингов России.К тому же TheRipper совершенно прав, игра со стабильным 24 fps и 60 — очень сильно отличается. Описание. СМОТРИТЕ продолжение про Хакеров CLAY: https://www.youtube.com/watch?vAvx5h1kKyvclistPLsgpbL0J-bLxpmsq8mPq-ILpeXELNvr - рейтинг КиноПоиск: 7.432 | отличный фильм - рейтинг IMDb: 7. 60 | отличный фильм. Посмотрел сначала 60 фпс, потом 48 фпс - разница заметна.oleumvivum13 августа 2015 в 13:18. 24 кадра слишком мало, потом после мир заторможенный какой-то. А вот 60 fps или 120 вполне устраивают, и мир после не заторможен. пространство : YUV Субдискретизация насыщенности : 4:2:0 Битовая глубина : 8 бит Тип развёртки : Прогрессивная Бит/(ПикселиКадры) : 0.093 Размер потока : 2,72 Гбайт (91) Заголовок : slaventi-69 ( R.G. HD-Films | 60 fps В 60фпс видно становятся дикорации. Ответить. Игорь Кудесник : 02.09.2015 в 13:08. Павел, странно все это) в играх 60 фпс это хорошо а в фильмах наоборот идеально 24). Все современные плееры отлично справляются с HD форматами AVI и MKV, поэтому, после скачивания фильма с высокой скоростью, вам останется лишь запустить его и насладиться просмотром.

Ключевые слова: jekk66 26.05. 2015 883206. СМОТРИТЕ продолжение про Хакеров CLAY: https://www.youtube.com/watch?vAvx5h - рейтинг КиноПоиск: 7.432 | отличный фильм - рейтинг IMDb: 7. 60 | отличный фильм. ОПИСАНИЕ: Бенджамин с детства был отчужденцем, непонятным для окружающих. http://super-kino.org/60fps/rss.xml. Потом я решил немного повысить настройки (до очень высоких) и было 40-60 фпс, еще и проседало до 20, после я решил покрутить настройки иFPS в игре в среднем 50-60 кадров с просадками до 43. Дмитрий, для 60фпс сам видео должно быть с 60фпс , на не 25 как сдесь.вот качество вижу а 60fps тут увы нет,ну думаю всё сделают. 26 сентября 2015.

Недавно написанные: